&title=天狗の落とし文 feat. ytr
&artist=魂音泉
&first=0
&des=サファ太
&lv_5=13+
&inote_5=(160){1},
{4}3h[4:8]/5,5,5,5,4,4,4,4,
6h[4:5],4,4,4,5,5,{8}5/6,4,3/5,,
{16}3x,4,3,,{8}2,2,1,8,7h[8:1]/4h[8:1],,{16}6,5,6,,{8}7,7,8,1,2h[8:1]/5h[8:1],,
{16}3,4,3,,8,,7,,6,5,6,,1,,2,,{4}4/3h[4:2],,B4/B5/E5f,1/8,
{16}2x/6x,,3,4,,6,,3,4,,7,,3,5,3,5,2,4,2,4,3-8[8:1],4,2,,{4},1bx,
{16}3/7,,6,5,,3,,6,5,,2,,1,8,1,8,2,1,2,1,3-8b[8:1],1,2,,{4},1/7,
{8}5b/3bh[4:6],,1-4[8:1],1,,,1-6b[8:1],1,,,1-5-3-8[8:3],1,,,,,
1,1,2/6<1[8:1],3/5,,,2x/8x,,5/7,5/7,4/6<1b[8:1],3/5,,,8bx,,
{16}2h[8:1]/6h[8:1],,,,3,5,3,5,4,5,4,5,2h[4:1],,,,5,3,5,3,6,4,6,4,5,4,5,4,7h[4:1],,,,
{8}1-6[8:1],2-5[8:1],1x,2x,7bx,7x,1-6b[8:1],2-5b[8:1],1x,2x,8b,8,1w5[8:1],2,1x,,
3b/7b,7,{16}4,5,4,5,3<6[8:1],4,2,,7x,,,,8,1,8,1,7,8,7,8,6>3b[8:1],8,7,,2x,,,,
{2}1w5[8:1],8w4b[8:1],{16}1x/7x,,,,2/6,,3,4,,6,5,,{4}3-8[8:1]/7-4[8:1],
A3/A7/B3/B7/Cf,,8x,1/7h[4:1],{6}4,3/6,2/5,{4}1-6[8:1]/4h[4:1],,
5>2[8:1]/7,,4<7[8:1],,{12}1x,2x,3x,8x,7x,6x,{4}4x/5x,2>4[8:1],
8<6[8:1],5-1b[8:1],5x,7<5[8:1],1>3[8:1],4-8b[8:1],4x,1x/7x,
{12}2h[12:2],,4,3,5,4,6h[4:1],,,5,,,3,4,2,6,5,7,1b,,,{4}1qq6[4:2]/2q5[4:2],
,,,8/7p4[4:2],{16}1x,,,2x,,,3x,,3hx[4:1],,,,{4}4<8[4:1],
8-6-4b[4:1],4,1,2/8-2-4b[4:1],4-6-8[4:1],8<4b[4:1],4,8b,
{12}2,4,3,6,4,5,3x-8[8:1],3x,,4,,,6,4,5,3,5,4,6x-1b[8:1],6x,,2x,,,
{4}3<7[4:1],7-5-3b[4:1],1,7-1-3[4:1],3>7b[4:1],7,3,1v4[8:1]*v6[8:1],
{64}1bpp6[4:7],Cf,,,{16},,,{4},,,,,,,
5h[4:4],,,,{12}E6,E7,E8,E1,E2,E3,E4/8bx,,,,,,
{4}1h[4:12]/7,,Ch[4:4],,,,,,
8>7-2-6-3[4:5],,,,,,1,2,
4/3h[4:2],,{12}5<8-3[4:2],4,4,{4}3x,4h[4:4],,3b,,
1h[4:2],,{32}2x,3x,{16}4xh[16:7],,,{4},5q3[4:2],{12},4x,4x,{4}4x,,
5/6h[4:4],,1b,,8h[4:2],,{32}7x,6x,{16}5xh[16:7],,,{4},
1-3<5b[4:2]*<7-5[4:2],,,,6/4h[4:3],,,5,
{12}1/6,,7-5[8:1],8-4[8:1],,7,8,,1-5[8:1],2-4[8:1],,1,2,,7<4[8:1],8>3[8:1],,7,8w4[8:1],,,8x,,,
{16}2b/6b,,3,4,2,5,4,7,5,6,5,,3/8,,4/7,,5/6>3[8:1],,1,,4/6,,2,,1-4[8:1]*-6[8:1],,2/8,,1b,,,,
{12}8/3,,2-4[8:1],1-5[8:1],,2,1,,8-4[8:1],7-5[8:1],,8,7,,2>5[8:1],1<6[8:1],,2,1w5[8:1],,,1x,,,
{16}3b/7b,,6,5,6,4,5,3,4,2,5,1,6,8,7,8,6-1[8:1],,5/7,,6x,,4,,2-5b[8:1],8,2,8,2b,,,,
{12}7<4[4:1],,4,4>1[4:1],,1,1<6[4:1],,6,6>3[4:1],,3,3p7[4:1],,7,7p3[4:1],,3,3,,1,1,,2/8,
2/8h[4:1],,5,5,,3,4/2h[4:1],,1,1,,2/8,3-8[8:1]/7-4[8:1],3/7,3/7,3b/7b,,,2-5[8:1]/6-1[8:1],2/6,2/6,2b/6b,,,
3>8[4:1],,8,8<5[4:1],,5,5>2[4:1],,2,2<7[4:1],,7,7p3[4:1],,3,3p7[4:1],,7,7<4[4:1],,4,4,,2,
{4}2-6b[8:1],2/1-5b[8:1],1/8-4[8:1],1<6b[8:1]/8>3b[8:1],1b/8b,Cf/B4/B5,1/8,2/7,
{1}1-6-2-5[4:2]/8<6-2>4[4:2],8-3-7-4[4:2]/1>3-7<5[4:2],
Ch[4:4],{2},{8}1-4[8:1]/8-5[8:1],2/7,1/8,,
3b/6b,,2/4,1,2/4,8,2/4,7,{16}3,4,2,,6,5,7,,{8}2-4-1-5b[8:3],2,8,7,
6b/Cf,,8/7,6,1/2,3,4-2-8-6[8:3],5,4x/6,,,,5w1[8:1],6/4,5,,
{16}3b/7b,,6,5,7,,1/8,,2b/7b,,3,4,2,,1/8,,7b,5,6,3,5,4,7,5,{8}6-4[8:1],7,2-6[8:1]/6-8[8:1],1,
2b/6b,,1/2,3/8,{16}5b/6b,,7,8,6,,4/5,,2b,4,3,6,4,5,2,4,{8}3-5[8:1],2,7-3[8:1]/3-1[8:1],8,
3b/7b,,4/8,1/5,2-5[8:1]/6-1[8:1],,2/6,,4<7[8:1]/8,3,2,1,8>3[8:1],7,6,5,
4/5,{16}4,5,{8}3-8[8:1],4-7[8:1],3,4,1x,2/8,3/7,{24}5,4,6,{8}5,2/8,1/7,{16}3,5,1-5[8:1]*s5[8:1],7,2,6,1b,
